#TITLE:Super Dancer;
#SUBTITLE:Dead Master;
#ARTIST:SDO;
#TITLETRANSLIT:;
#SUBTITLETRANSLIT:;
#ARTISTTRANSLIT:;
#CREDIT:;
#BANNER:;
#BACKGROUND:;
#LYRICSPATH:;
#CDTITLE:;
#MUSIC:SDO (Super Dancer).mp3;
#OFFSET:-1.614;
#SAMPLESTART:45.151;
#SAMPLELENGTH:12.000;
#SELECTABLE:YES;
#BPMS:0.000=137.813;
#STOPS:;
#BGCHANGES:0.000=SDO (Super Dancer).avi=1.000=1=1=0,
99999=-nosongbg-=1.000=0=0=0 // don't automatically add -songbackground-
;
// cache tags:
#FIRSTBEAT:1.000;
#LASTBEAT:285.250;
#SONGFILENAME:Songs/sdo pack 6/SDO(Super Dancer)/SDO (Super Dancer).sm;
#HASMUSIC:1;
#HASBANNER:0;
#MUSICLENGTH:126.798;
// end cache tags

//---------------dance-single - ----------------
#NOTES:
     dance-single:
     :
     Medium:
     1:
     0.695,0.844,0.300,0.110,1.000,565.000,38.000,14.000,0.000,0.000:  // measure 1
0000
0000
0000
0000
1000
0000
0000
0010
0000
0000
0000
0100
0000
0000
0010
0000
,  // measure 2
0000
1000
0000
0010
0000
0000
0000
0100
0000
0000
0000
0000
0000
0000
0000
0001
,  // measure 3
0000
0100
0000
0000
0010
0000
0000
1000
0000
0010
0000
0000
0100
0000
0000
0000
,  // measure 4
0000
0000
0000
0000
0000
0000
0010
0000
0100
0000
0000
0001
0000
1000
0000
0000
,  // measure 5
0010
0000
0100
0000
0000
0000
0000
0000
0010
0000
0000
0000
0000
0100
0000
0010
,  // measure 6
0000
0000
1000
0000
0000
0010
0000
0000
0100
0000
0000
0010
0000
0000
0000
0100
,  // measure 7
0000
0010
0000
0000
1000
0000
0001
0000
0000
0100
0000
0010
0000
0000
0000
0100
,  // measure 8
0000
0000
0000
0000
0000
0000
0010
0000
0000
1000
0000
0010
0000
0000
0100
0000
,  // measure 9
0001
0000
0000
0100
0000
0010
0000
0000
0000
0000
0000
0000
0000
1000
0000
0000
,  // measure 10
0010
0000
0000
0100
0000
0010
0000
0000
0000
0100
0000
0002
0000
0000
0000
0000
,  // measure 11
0000
0000
0023
0000
0000
0000
0230
0000
0000
0000
0300
0000
0020
0000
0000
0030
,  // measure 12
0000
1000
0000
1000
0000
1000
1000
0000
1000
0000
1000
0000
1000
1000
0000
1000
,  // measure 13
1000
0000
0010
0010
0000
0010
0000
0010
0000
0010
0010
0000
0010
0000
0010
0010
,  // measure 14
0000
0100
0000
0100
0000
0100
0100
0000
0100
0000
0100
0100
0000
0100
0100
0000
,  // measure 15
0100
0100
0001
0000
0001
0000
0001
0001
0000
0001
0000
0001
0001
0000
0001
0000
,  // measure 16
1000
0000
0000
0000
,  // measure 17
0000
0000
0000
0000
,  // measure 18
0000
0000
0000
0000
,  // measure 19
0000
0000
0000
0000
,  // measure 20
0000
0000
0000
0101
0000
0000
1010
0000
0000
0000
0101
0000
0110
0000
0000
1001
,  // measure 21
0000
0000
0110
0000
0101
0000
0000
1010
0001
0000
0000
0110
0101
0000
1010
0000
,  // measure 22
0010
0100
0000
0101
0000
0000
1010
0000
0000
0000
0101
0000
0101
0000
1010
0000
,  // measure 23
0000
0101
0101
0000
0000
0000
1010
0000
0000
0000
0001
0100
0000
0000
0101
0000
,  // measure 24
0000
0000
0010
0000
1000
0000
0010
0000
0100
0000
0000
0001
0000
0100
0000
0010
,  // measure 25
0100
0010
1000
0001
0100
0010
0100
0001
,  // measure 26
1000
0020
0000
0000
0000
0000
0000
0100
0100
0000
0100
0000
0100
0000
0100
0000
,  // measure 27
0000
1030
1000
0001
0000
0100
0001
0000
0100
0000
0010
0000
0010
1000
0000
0001
,  // measure 28
0000
0100
0010
0000
0000
0100
0010
0000
0100
0000
0001
0000
1000
0010
0100
0001
,  // measure 29
0000
0100
0010
0000
1001
0000
0100
0010
0100
0001
0100
0010
0000
1000
0001
0000
,  // measure 30
0100
0000
0000
0010
0100
0001
1000
0010
0000
0100
0001
0100
0010
0100
0001
0000
,  // measure 31
1000
0000
0010
0100
0001
0100
0010
0100
0000
0001
1000
0010
0100
0000
0010
0000
,  // measure 32
0010
0000
0101
0000
0100
0010
0000
1000
0010
0100
0001
0100
0000
0010
0100
0010
,  // measure 33
0000
0000
0001
1000
0011
0000
0100
0010
0100
0001
0100
0010
0000
1000
0010
0100
,  // measure 34
0000
0010
0100
0001
0000
1010
0000
0100
0010
0100
0010
0100
0001
0000
0100
0010
,  // measure 35
0000
1000
0010
0100
0010
0001
0100
0010
1000
0010
0100
0000
0001
0100
0010
0000
,  // measure 36
0100
0000
0001
1000
0010
0100
0010
0100
0001
0100
0010
0000
1001
0000
0001
0100
,  // measure 37
0001
0100
0010
1000
0010
0000
0101
0000
0001
0010
1100
0010
0000
0100
0001
0100
,  // measure 38
0010
0000
1000
0010
0101
0000
0100
0010
1000
0010
0100
0001
0100
0010
1000
0000
,  // measure 39
0010
0100
0001
0100
0010
0000
0100
0010
1000
0001
0100
0010
0100
0001
0000
1000
,  // measure 40
0010
0100
0000
0000
0001
0100
0010
0100
0010
0000
1000
0010
0100
0010
0101
0000
,  // measure 41
0010
0100
0010
0100
0010
0000
1001
0000
0100
0010
0100
0010
0101
0000
1000
0000
,  // measure 42
0010
0100
0010
0100
0001
0000
1010
0000
0100
0010
0100
0001
0100
0001
0010
1000
,  // measure 43
0010
0100
0010
0100
0001
0100
0010
0000
1000
0001
0000
0110
0000
0100
0010
0000
,  // measure 44
0100
0000
0001
0000
0100
0010
0000
0010
1000
0010
0000
0100
0000
0001
0000
0100
,  // measure 45
0010
0000
1000
0000
0010
0000
0100
0000
0010
0000
0100
0000
0001
0100
0000
0010
,  // measure 46
0100
0000
0010
0000
1000
0000
0010
0000
0100
0010
0000
0100
0010
0000
0100
0001
,  // measure 47
0000
0100
0010
0000
1000
0000
0010
0100
0000
0010
0100
0000
0001
0000
0100
0010
,  // measure 48
0010
0000
1000
0010
0000
0100
0010
0000
0100
0001
0100
0001
0000
1000
0010
0010
,  // measure 49
0000
0100
0010
0000
0100
0000
0001
0001
0100
0000
0010
1000
0010
0000
0100
0010
,  // measure 50
0100
0000
0001
0000
0001
0100
0010
0000
0010
1000
0000
0010
0000
0010
0100
0010
,  // measure 51
0100
0000
0001
0000
1000
0010
0000
0010
0000
0100
0010
0100
0000
0010
0000
0110
,  // measure 52
0000
0010
1000
0001
0000
0100
0010
0000
0100
0010
0100
0001
0000
1000
0010
0000
,  // measure 53
0010
0100
0001
0000
0100
0010
0000
1000
0010
0000
0100
0001
0100
0010
0000
0100
,  // measure 54
0010
1000
0000
0010
0000
0100
0010
0000
0110
0000
0101
0000
0001
0100
0010
0100
,  // measure 55
0010
0000
1000
0000
0100
0010
0000
0010
0000
0100
0010
0010
0100
0000
0010
0000
,  // measure 56
0000
1000
0010
0000
1000
0110
0000
0001
0100
0001
0000
0100
0000
0010
0100
0010
,  // measure 57
0000
0010
1000
0000
0100
0010
0000
0010
0100
0000
0001
0000
0001
0100
0010
0000
,  // measure 58
1010
0000
0100
0000
0010
0010
0000
0100
0001
0000
0001
1000
0100
0010
0000
0010
,  // measure 59
0100
0000
0001
1000
0000
0100
0020
0000
0000
0000
0030
0200
0000
0000
0300
0010
,  // measure 60
0000
0000
0000
0000
0000
0000
0000
0100
0000
0000
0000
0010
0000
0000
1000
0000
,  // measure 61
0000
0010
0000
0000
0100
0000
0000
0001
0000
0100
0000
0000
0100
0000
0000
0100
,  // measure 62
0000
0000
0010
0000
0000
1000
0000
0010
0000
0100
0000
0000
0010
0000
0100
0000
,  // measure 63
0000
0001
0000
0000
0000
0100
0000
0010
0000
0000
0100
0000
0000
0010
0000
0000
,  // measure 64
1000
0000
0010
0000
0000
0200
0000
0000
0000
0000
0300
0020
0000
0000
0000
0030
,  // measure 65
0000
1000
0000
0000
0010
0000
0010
0000
0000
0100
0000
0000
0010
0000
0000
0100
,  // measure 66
0000
0001
0000
0000
0100
0000
0010
0000
0000
1000
0000
0000
0010
0000
0000
0100
,  // measure 67
0000
0000
0001
0000
0100
0000
0000
0010
0000
0000
1000
0000
0000
0010
0000
0100
,  // measure 68
0000
0000
0001
0000
0000
0100
0000
0010
0000
0000
0000
0100
0000
0000
0010
0000
,  // measure 69
0000
0100
0000
0001
0000
0000
1000
0000
0000
0010
0000
0000
0100
0000
0000
0002
,  // measure 70
0000
0000
0000
0000
0000
0203
0000
0000
0000
0300
0020
0000
0000
0000
0030
2000
,  // measure 71
0000
0000
0000
3200
0000
0000
0000
0000
0000
0000
0000
0000
0000
0000
0000
0000
,  // measure 72
0000
0000
0000
0000
0000
0300
0000
0000
0000
0000
0000
0000
0000
0000
0000
0000
;
